<?xml version="1.0" standalone="no"?>
<!DOCTYPE svg PUBLIC "-//W3C//DTD SVG 1.1//EN" "http://www.w3.org/Graphics/SVG/1.1/DTD/svg11.dtd" >
<svg xmlns="http://www.w3.org/2000/svg">
<metadata>Generated by IcoMoon</metadata>
<defs>
<font id="Scamp-Player" horiz-adv-x="512">
<font-face units-per-em="512" ascent="480" descent="-32" />
<missing-glyph horiz-adv-x="512" />
<glyph unicode="&#x20;" horiz-adv-x="0" d="" />
<glyph unicode="&#xe050;" glyph-name="skip-back" d="M362.666 384q8.834 0 15.084-6.25t6.25-15.083q0-9-6.166-15.167l-134.333-134.166 134.333-134.333q6.166-6.166 6.166-15.166 0-8.834-6.25-15t-15.084-6.166q-9 0-15.166 6.166l-149.333 149.334q-6.167 6.5-6.167 15.166 0 8.5 6.167 15l149.333 149.333q6.334 6.334 15.166 6.334zM128 384q8.834 0 15.084-6.25t6.25-15.083v-298.666q0-8.834-6.25-15.084t-15.084-6.25-15.084 6.25-6.25 15.084v298.666q0 8.834 6.25 15.084t15.084 6.25z" />
<glyph unicode="&#xe052;" glyph-name="play" d="M85.334 21.333v384l320-192zM322.334 213.333l-194.333 116.666v-233.334z" />
<glyph unicode="&#xe053;" glyph-name="pause" d="M341.334 405.333q26.5 0 45.25-18.75t18.75-45.25v-256q0-26.5-18.75-45.25t-45.25-18.75-45.25 18.75-18.75 45.25v256q0 26.5 18.75 45.25t45.25 18.75zM170.667 405.333q26.5 0 45.25-18.75t18.75-45.25v-256q0-26.5-18.75-45.25t-45.25-18.75-45.25 18.75-18.75 45.25v256q0 26.5 18.75 45.25t45.25 18.75zM170.667 362.667q-8.833 0-15.083-6.25t-6.25-15.083v-256q0-8.834 6.25-15.084t15.084-6.25 15.084 6.25 6.25 15.084v256q0 8.833-6.25 15.083t-15.084 6.25zM341.334 362.667q-8.834 0-15.084-6.25t-6.25-15.083v-256q0-8.834 6.25-15.084t15.084-6.25 15.084 6.25 6.25 15.084v256q0 8.833-6.25 15.083t-15.084 6.25z" />
<glyph unicode="&#xe056;" glyph-name="skip-forward" d="M128 384q8.834 0 15.166-6.333l149.334-149.333q6.166-6.167 6.166-15 0-9-6.166-15.166l-149.333-149.334q-6.167-6.166-15.167-6.166-8.834 0-15.084 6.166t-6.25 15q0 8.666 6.166 15.166l134.333 134.334-134.333 134.167q-6.166 6.5-6.166 15.166 0 8.834 6.25 15.084t15.084 6.25zM362.666 384q8.834 0 15.084-6.25t6.25-15.083v-298.666q0-8.834-6.25-15.084t-15.084-6.25-15.084 6.25-6.25 15.084v298.666q0 8.834 6.25 15.084t15.084 6.25z" />
<glyph unicode="&#xe098;" glyph-name="volume" d="M106.666 298.667l106.666 106.666v-384l-106.666 106.666h-42.666q-26.5 0-45.25 18.75t-18.75 45.25v41.834q0 26.5 18.75 45.666t45.25 19.167h42.666zM170.667 124.333v178.834l-46.334-47.167h-60.334q-8.666 0-15-6.583t-6.334-15.583v-41.834q0-8.834 6.25-15.084t15.084-6.25h60.334zM310 284.5q6.166 0 11.584-3.5t8.084-9.5q11.666-28.167 11.666-58.167 0-30.5-11.666-57.834-2.5-6-7.916-9.584t-11.75-3.584q-7.834 0-14.584 5.916t-6.75 15.416q0 3.834 1.666 8.334 8.334 19.666 8.334 41.334 0 21.5-8.334 41.5-1.666 3.833-1.666 8.334 0 9.5 6.416 15.416t14.916 5.917zM375.166 344q12 0 18.334-10.5 16.5-27.5 24.5-56.833 8.666-31.334 8.666-63.334 0-31.834-8.666-63.5-8.166-29.666-24.5-56.834-6.166-10.334-18.334-10.334-8.334 0-14.834 6t-6.5 15.334q0 5.834 3.166 11 13 21.666 19.834 46.334 7.166 25 7.166 52 0 26.834-7.166 51.834-6.834 24.666-19.834 46.5-3.166 4.833-3.166 10.833 0 9 6.584 15.25t14.75 6.25zM439 402.5q11.5 0 17.666-9.333 27.166-39.834 41.25-85.667t14.084-94.166-14.084-94.166-41.25-85.666q-6-9.334-17.666-9.334-8.666 0-14.916 6t-6.25 15.334q0 6.666 3.666 12 47.834 70.166 47.834 155.834 0 42-12.166 81.667t-35.666 74.166q-3.666 5.334-3.666 12 0 9.334 6.25 15.334t14.916 6z" />
<glyph unicode="&#xe099;" glyph-name="mute" d="M128 298.667l106.666 106.666v-384l-106.666 106.666h-42.666q-26.5 0-45.25 18.75t-18.75 45.25v41.834q0 26.5 18.75 45.666t45.25 19.167h42.666zM192 124.333v178.834l-46.334-47.167h-60.334q-8.666 0-15-6.583t-6.334-15.583v-41.834q0-8.834 6.25-15.084t15.084-6.25h60.334zM448 298.667q9.166 0 15.25-6.083t6.084-15.25q0-9-6.166-15.167l-49-48.834 49-48.834q6.166-6.166 6.166-15.166 0-9.166-6.084-15.25t-15.25-6.084q-9 0-15.166 6.166l-48.834 49-48.834-49q-6.166-6.166-15.166-6.166-9.166 0-15.25 6.084t-6.084 15.25q0 9 6.166 15.166l49 48.834-49 48.834q-6.166 6.167-6.166 15.167 0 9.166 6.084 15.25t15.25 6.083q9 0 15.166-6.167l48.834-49 48.834 49q6.166 6.167 15.166 6.167z" />
<glyph unicode="&#xe114;" glyph-name="plus" d="M256 426.667q8.834 0 15.084-6.25t6.25-15.083v-170.667h170.666q8.834 0 15.084-6.25t6.25-15.084-6.25-15.084-15.084-6.25h-170.667v-170.666q0-8.834-6.25-15.084t-15.084-6.25-15.084 6.25-6.25 15.084v170.667h-170.667q-8.834 0-15.084 6.25t-6.25 15.084 6.25 15.084 15.084 6.25h170.667v170.667q0 8.834 6.25 15.084t15.084 6.25z" />
<glyph unicode="&#xe115;" glyph-name="minus" d="M64 234.667h384q8.834 0 15.084-6.25t6.25-15.084-6.25-15.084-15.084-6.25h-384q-8.834 0-15.084 6.25t-6.25 15.084 6.25 15.084 15.084 6.25z" />
<glyph unicode="&#xe116;" glyph-name="check" d="M448 362.667q9.166 0 15.25-6.083t6.084-15.25q0-9-6.166-15.167l-256-256q-6.167-6.166-15.166-6.166t-15.166 6.166l-128 128q-6.166 6.166-6.166 15.166 0 9.166 6.084 15.25t15.25 6.083q9 0 15.166-6.167l112.834-113 240.833 241q6.166 6.167 15.166 6.167z" />
<glyph unicode="&#xe117;" glyph-name="cross" d="M405.334 384q9.166 0 15.25-6.083t6.084-15.25q0-9-6.166-15.167l-134.334-134.166 134.333-134.167q6.166-6.166 6.166-15.166 0-9.166-6.084-15.25t-15.25-6.084q-9 0-15.166 6.166l-134.166 134.334-134.167-134.333q-6.166-6.166-15.166-6.166-9.166 0-15.25 6.084t-6.084 15.25q0 9 6.166 15.166l134.333 134.167-134.333 134.167q-6.166 6.166-6.166 15.166 0 9.167 6.084 15.25t15.25 6.084q9 0 15.166-6.167l134.167-134.333 134.167 134.333q6.166 6.166 15.166 6.166z" />
<glyph unicode="&#xe120;" glyph-name="menu2" d="M64 362.667h384q8.834 0 15.084-6.25t6.25-15.083-6.25-15.084-15.084-6.25h-384q-8.834 0-15.084 6.25t-6.25 15.084 6.25 15.083 15.084 6.25zM64 106.667h384q8.834 0 15.084-6.25t6.25-15.084-6.25-15.084-15.084-6.25h-384q-8.834 0-15.084 6.25t-6.25 15.084 6.25 15.084 15.084 6.25zM64 234.667h384q8.834 0 15.084-6.25t6.25-15.084-6.25-15.084-15.084-6.25h-384q-8.834 0-15.084 6.25t-6.25 15.084 6.25 15.084 15.084 6.25z" />
<glyph unicode="&#xe122;" glyph-name="inbox" d="M256 448q8.834 0 15.084-6.25t6.25-15.084v-247.167l70.166 70.334q6.166 6.167 15.166 6.167 9.166 0 15.25-6.083t6.084-15.25q0-9-6.166-15.167l-106.666-106.666q-6.166-6.166-15.166-6.166t-15.166 6.166l-106.666 106.666q-6.167 6.5-6.167 15.167 0 8.834 6.25 15.084t15.083 6.25q9 0 15.166-6.167l70.166-70.334v247.167q0 8.834 6.25 15.084t15.084 6.25zM469.334 149.333q8.834 0 15.084-6.25t6.25-15.084v-85.334q0-26.666-18.5-45.166-18.834-18.834-45-18.834h-341.834q-26.166 0-45.334 18.666-18.666 19.166-18.666 45.334v85.334q0 8.834 6.25 15.084t15.084 6.25 15.084-6.25 6.25-15.084v-85.334q0-8.834 6.25-15.084t15.084-6.25h341.834q8.666 0 14.75 6.25t6.084 15.084v85.334q0 8.834 6.25 15.084t15.084 6.25z" />
<glyph unicode="&#xe123;" glyph-name="outbox" d="M256 447q9 0 15.166-6.167l106.666-106.666q6.166-6.166 6.166-15.166 0-9.167-6.084-15.25t-15.25-6.084q-9 0-15.166 6.166l-70.166 70.334v-247.167q0-8.834-6.25-15.084t-15.084-6.25-15.084 6.25-6.25 15.084v247.167l-70.166-70.334q-6.5-6.166-15.166-6.166-8.834 0-15.084 6.25t-6.25 15.084q0 8.666 6.167 15.166l106.667 106.667q6.167 6.166 15.166 6.166zM469.334 148.333q8.834 0 15.084-6.25t6.25-15.084v-85.334q0-26.666-18.5-45.166-18.834-18.834-45-18.834h-341.834q-26.166 0-45.334 18.666-18.666 19.166-18.666 45.334v85.334q0 8.834 6.25 15.084t15.084 6.25 15.084-6.25 6.25-15.084v-85.334q0-8.834 6.25-15.084t15.084-6.25h341.834q8.666 0 14.75 6.25t6.084 15.084v85.334q0 8.834 6.25 15.084t15.084 6.25z" />
<glyph unicode="&#xe129;" glyph-name="ellipsis" d="M426.666 277.333q26.5 0 45.25-18.75t18.75-45.25-18.75-45.25-45.25-18.75-45.25 18.75-18.75 45.25 18.75 45.25 45.25 18.75zM85.334 277.333q26.5 0 45.25-18.75t18.75-45.25-18.75-45.25-45.25-18.75-45.25 18.75-18.75 45.25 18.75 45.25 45.25 18.75zM85.334 234.667q-8.834 0-15.084-6.25t-6.25-15.084 6.25-15.084 15.084-6.25 15.084 6.25 6.25 15.084-6.25 15.084-15.084 6.25zM256 277.333q26.5 0 45.25-18.75t18.75-45.25-18.75-45.25-45.25-18.75-45.25 18.75-18.75 45.25 18.75 45.25 45.25 18.75zM256 234.667q-8.834 0-15.084-6.25t-6.25-15.084 6.25-15.084 15.084-6.25 15.084 6.25 6.25 15.084-6.25 15.084-15.084 6.25zM426.666 234.667q-8.834 0-15.084-6.25t-6.25-15.084 6.25-15.084 15.084-6.25 15.084 6.25 6.25 15.084-6.25 15.084-15.084 6.25z" />
<glyph unicode="&#xe600;" glyph-name="loop" d="M512 300.8v-179.2c0-28.237-22.938-51.2-51.2-51.2h-409.6c-28.262 0-51.2 22.963-51.2 51.2v179.2c0 28.262 22.938 51.2 51.2 51.2h179.2v51.2l102.4-89.6-102.4-89.6v51.2h-153.6v-128h358.4v128h-76.8v76.8h102.4c28.262 0 51.2-22.938 51.2-51.2z" />
<glyph unicode="&#xe601;" glyph-name="shuffle" d="M386.381 308.634h23.552v-73.267l102.067 103.014-102.093 103.040v-61.107h-23.552c-94.567 0-147.865-70.093-194.918-131.891-42.291-55.603-78.848-103.654-137.881-103.654h-53.555v-71.654h53.581c94.566 0 147.865 70.041 194.918 131.891 42.291 55.629 78.848 103.629 137.881 103.629zM138.496 263.475c4.045 5.197 8.089 10.547 12.211 15.949 9.984 13.159 20.583 27.008 32.051 40.858-33.843 31.59-74.624 54.887-129.178 54.887h-53.581v-71.654h53.581c33.971 0 60.467-15.949 84.915-40.038zM409.907 139.673h-23.552c-36.019 0-63.667 17.945-89.37 44.493-2.56-3.353-5.146-6.759-7.757-10.163-11.289-14.848-23.424-30.745-36.839-46.541 34.714-33.894 76.8-59.495 133.939-59.495h23.552v-61.389l102.118 103.040-102.093 103.040v-72.986z" />
<glyph unicode="&#xe602;" glyph-name="soundcloud" d="M17.203 145.792l8.397 35.865-8.397 37.043c-0.23 1.101-2.355 1.945-4.889 1.945-2.611 0-4.71-0.845-4.889-1.945l-7.424-37.043 7.399-35.84c0.205-1.152 2.304-1.945 4.89-1.945 2.56-0.026 4.685 0.768 4.915 1.92zM69.709 125.901l7.091 55.399-7.091 85.709c-0.231 2.15-2.918 3.891-6.118 3.891-3.251 0-5.965-1.741-6.093-3.891l-6.297-85.709 6.297-55.399c0.154-2.202 2.841-3.891 6.093-3.891 3.2 0 5.888 1.69 6.118 3.891zM122.061 126.797l5.939 54.451-5.939 114.099c-0.153 2.714-3.302 4.813-7.219 4.813-3.891 0-7.040-2.099-7.194-4.813l-5.248-114.099 5.248-54.502c0.153-2.637 3.302-4.762 7.194-4.762 3.917 0.026 7.066 2.125 7.219 4.813zM174.336 127.591l4.864 53.658-4.864 114.944c-0.128 3.149-3.738 5.657-8.192 5.657-4.506 0-8.089-2.509-8.218-5.657l-4.327-114.944 4.352-53.658c0.102-3.149 3.712-5.658 8.192-5.658 4.454 0.026 8.064 2.457 8.192 5.658zM226.56 128.307l3.84 52.889-3.84 131.815c-0.102 3.635-4.198 6.528-9.165 6.528s-9.063-2.944-9.139-6.553l-3.456-131.738 3.456-52.941c0.077-3.61 4.173-6.553 9.139-6.553s9.063 2.893 9.165 6.553zM263.091 121.702c0.205 0 181.76-0.103 182.912-0.103 36.454 0 65.997 28.595 65.997 63.846s-29.543 63.795-65.997 63.795c-9.037 0-17.639-1.792-25.498-4.941-5.248 57.498-55.117 102.605-115.942 102.605-14.873 0-29.389-2.841-42.189-7.603-5.017-1.894-6.323-3.789-6.375-7.552v-202.496c0.051-3.917 3.175-7.142 7.091-7.552z" />
<glyph unicode="&#xe604;" glyph-name="facebook" d="M435.2 454.4h-358.4c-28.16 0-51.2-23.040-51.2-51.2v-358.4c0-28.185 23.040-51.2 51.2-51.2h179.2v179.2h-51.2v63.36h51.2v52.48c0 55.399 31.027 94.311 96.409 94.311l46.157-0.051v-66.688h-30.643c-25.447 0-35.123-19.097-35.123-36.813v-43.264h65.741l-14.541-63.334h-51.2v-179.2h102.4c28.16 0 51.2 23.014 51.2 51.2v358.4c0 28.16-23.040 51.2-51.2 51.2z" />
<glyph unicode="&#xe606;" glyph-name="google" d="M50.919 336.922c0-38.247 12.774-65.843 37.939-82.048 20.633-13.312 44.544-15.309 56.986-15.309 3.021 0 5.453 0.154 7.143 0.256 0 0-3.942-25.703 15.104-51.097h-0.87c-32.999 0-140.621-6.887-140.621-95.411 0-90.010 98.841-94.592 118.681-94.592 1.561 0 2.483 0.051 2.483 0.051 0.205 0 1.613-0.051 4.045-0.051 12.723 0 45.619 1.587 76.16 16.461 39.629 19.2 59.725 52.711 59.725 99.456 0 45.159-30.618 72.038-52.966 91.699-13.645 12.007-25.447 22.349-25.447 32.41 0 10.24 8.627 17.946 19.507 27.699 17.638 15.744 34.279 38.195 34.279 80.64 0 37.299-4.839 62.362-34.662 78.259 3.097 1.587 14.106 2.739 19.533 3.507 16.154 2.202 39.783 4.71 39.783 17.894v2.534h-117.734c-1.178-0.051-119.066-4.403-119.066-112.358zM240.973 106.189c2.253-35.993-28.544-62.541-74.803-65.894-46.976-3.456-85.632 17.69-87.885 53.657-1.101 17.305 6.502 34.202 21.376 47.693 15.079 13.645 35.789 22.093 58.317 23.757 2.662 0.154 5.299 0.307 7.936 0.307 43.494-0.026 72.934-25.575 75.059-59.52zM210.227 361.575c11.546-40.653-5.888-83.098-33.69-90.957-3.2-0.896-6.477-1.331-9.831-1.331-25.447 0-50.662 25.753-60.032 61.261-5.222 19.865-4.787 37.325 1.203 54.067 5.862 16.512 16.461 27.597 29.773 31.36 3.2 0.896 6.502 1.357 9.856 1.357 30.72 0 50.483-12.749 62.72-55.757zM409.6 275.2v76.8h-51.2v-76.8h-76.8v-51.2h76.8v-76.8h51.2v76.8h76.8v51.2h-76.8z" />
<glyph unicode="&#xe608;" glyph-name="twitter" d="M443.289 320.102c0.205-4.147 0.281-8.345 0.281-12.493 0-127.744-97.203-274.995-274.944-274.995-54.605 0-105.37 16-148.147 43.443 7.578-0.896 15.258-1.357 23.040-1.357 45.312 0 86.963 15.462 120.013 41.344-42.266 0.793-77.978 28.697-90.266 67.097 5.888-1.101 11.955-1.69 18.176-1.69 8.832 0 17.383 1.152 25.472 3.353-44.211 8.909-77.517 47.949-77.517 94.797 0 0.409 0 0.793 0 1.203 13.031-7.245 27.955-11.597 43.776-12.109-25.933 17.357-43.008 46.899-43.008 80.461 0 17.69 4.761 34.304 13.107 48.589 47.642-58.496 118.887-96.947 199.194-100.992-1.638 7.091-2.483 14.438-2.483 22.041 0 53.351 43.239 96.589 96.614 96.589 27.801 0 52.915-11.699 70.553-30.49 21.99 4.352 42.675 12.391 61.363 23.45-7.219-22.554-22.553-41.498-42.496-53.453 19.558 2.355 38.144 7.501 55.501 15.207-12.954-19.405-29.337-36.403-48.231-49.997z" />
<glyph unicode="&#xe609;" glyph-name="add-shopping-cart" d="M234.667 288h42.667v64h64v42.666h-64v64h-42.666v-64h-64v-42.666h64v-64zM149.333 96c-23.573 0-42.453-19.094-42.453-42.666s18.88-42.666 42.453-42.666 42.667 19.094 42.667 42.666-19.094 42.666-42.666 42.666zM362.666 96c-23.574 0-42.454-19.094-42.454-42.666s18.88-42.666 42.454-42.666 42.666 19.094 42.666 42.666-19.094 42.666-42.666 42.666zM153.066 165.334c0 0.96 0.214 1.813 0.64 2.56l19.2 34.774h158.934c16 0 29.974 8.853 37.334 21.974l82.346 149.546-37.334 20.48h-0.106l-23.574-42.666-58.774-106.666h-149.654l-2.774 5.76-68.16 143.573-20.16 42.667h-69.653v-42.667h42.666l76.8-161.813-28.906-52.267c-3.306-6.187-5.227-13.12-5.227-20.587 0-23.574 19.093-42.666 42.666-42.666h256v42.666h-246.934c-2.987 0-5.333 2.346-5.333 5.334z" />
<glyph unicode="&#xe60a;" glyph-name="favorite" d="M256 24.534l-30.934 28.053c-109.867 99.733-182.4 165.547-182.4 246.080 0 65.813 51.52 117.333 117.334 117.333 37.12 0 72.746-17.28 96-44.48 23.253 27.2 58.88 44.48 96 44.48 65.813 0 117.334-51.52 117.334-117.333 0-80.534-72.534-146.346-182.4-246.080l-30.934-28.053z" />
<glyph unicode="&#xe60b;" glyph-name="highlight-remove" d="M311.147 309.333l-55.147-55.146-55.147 55.146-30.186-30.186 55.147-55.147-55.147-55.147 30.186-30.187 55.147 55.147 55.147-55.147 30.187 30.187-55.147 55.147 55.147 55.147-30.187 30.186zM256 437.334c-117.867 0-213.333-95.466-213.333-213.334s95.466-213.333 213.333-213.333 213.333 95.466 213.333 213.333-95.466 213.333-213.333 213.333zM256 53.334c-94.080 0-170.667 76.587-170.667 170.667s76.587 170.667 170.667 170.667 170.667-76.587 170.667-170.667-76.587-170.667-170.667-170.667z" />
<glyph unicode="&#xe60c;" glyph-name="toc" d="M64 288h298.666v42.666h-298.666v-42.666zM64 202.666h298.666v42.666h-298.666v-42.666zM64 117.334h298.666v42.666h-298.666v-42.666zM405.334 117.334h42.666v42.666h-42.666v-42.666zM405.334 330.667v-42.667h42.666v42.666h-42.666zM405.334 202.666h42.666v42.666h-42.666v-42.666z" />
<glyph unicode="&#xe60d;" glyph-name="error" d="M256 437.334c-117.76 0-213.333-95.466-213.333-213.334s95.573-213.333 213.333-213.333 213.333 95.466 213.333 213.333-95.573 213.333-213.333 213.333zM277.334 117.334h-42.666v42.666h42.666v-42.666zM277.334 202.666h-42.666v128h42.666v-128z" />
<glyph unicode="&#xe60e;" glyph-name="fast-forward" d="M85.334 96l181.333 128-181.333 128v-256zM277.334 352v-256l181.334 128-181.333 128z" />
<glyph unicode="&#xe60f;" glyph-name="fast-rewind" d="M234.667 96v256l-181.333-128 181.333-128zM245.333 224l181.333-128v256l-181.333-128z" />
<glyph unicode="&#xe611;" glyph-name="pause-circle-outline" d="M192 138.666h42.666v170.666h-42.666v-170.666zM256 437.334c-117.867 0-213.333-95.466-213.333-213.334s95.466-213.333 213.333-213.333 213.333 95.466 213.333 213.333-95.466 213.333-213.333 213.333zM256 53.334c-94.080 0-170.667 76.587-170.667 170.667s76.587 170.667 170.667 170.667 170.667-76.587 170.667-170.667-76.587-170.667-170.667-170.667zM277.334 138.666h42.666v170.666h-42.666v-170.666z" />
<glyph unicode="&#xe612;" glyph-name="play-arrow" d="M170.667 373.334v-298.666l234.667 149.333z" />
<glyph unicode="&#xe613;" glyph-name="play-circle-outline" d="M213.333 128l128 96-128 96v-192zM256 437.334c-117.867 0-213.333-95.466-213.333-213.334s95.466-213.333 213.333-213.333 213.333 95.466 213.333 213.333-95.466 213.333-213.333 213.333zM256 53.334c-94.080 0-170.667 76.587-170.667 170.667s76.587 170.667 170.667 170.667 170.667-76.587 170.667-170.667-76.587-170.667-170.667-170.667z" />
<glyph unicode="&#xe614;" glyph-name="queue-mus" d="M320 352h-256v-42.666h256v42.666zM320 266.667h-256v-42.667h256v42.666zM64 138.666h170.667v42.666h-170.667v-42.666zM362.666 352v-174.613c-6.72 2.454-13.76 3.947-21.334 3.947-35.307 0-64-28.694-64-64s28.693-64 64-64 64 28.694 64 64v192h64v42.666h-106.666z" />
<glyph unicode="&#xe616;" glyph-name="skip-next" d="M128 96l181.333 128-181.333 128v-256zM341.334 352v-256h42.666v256h-42.666z" />
<glyph unicode="&#xe617;" glyph-name="skip-previous" d="M128 352h42.666v-256h-42.666zM202.667 224l181.333-128v256z" />
<glyph unicode="&#xe618;" glyph-name="volume-down" d="M394.666 224c0 37.76-21.76 70.187-53.334 85.974v-171.733c31.574 15.574 53.334 48 53.334 85.76zM106.666 288v-128h85.334l106.666-106.666v341.334l-106.666-106.666h-85.334z" />
<glyph unicode="&#xe619;" glyph-name="volume-mute" d="M149.333 288v-128h85.333l106.666-106.666v341.334l-106.666-106.666h-85.334z" />
<glyph unicode="&#xe61a;" glyph-name="volume-off" d="M352 224c0 37.654-21.76 70.187-53.334 85.866v-47.146l52.373-52.374c0.64 4.48 0.96 9.067 0.96 13.654zM405.334 224c0-20.053-4.373-38.933-11.52-56.32l32.32-32.32c13.866 26.56 21.866 56.64 21.866 88.64 0 91.307-63.894 167.68-149.333 187.094v-44.053c61.654-18.347 106.666-75.413 106.666-143.040zM91.2 416l-27.2-27.2 100.8-100.8h-100.8v-128h85.334l106.666-106.666v143.466l90.774-90.774c-14.293-10.986-30.4-19.84-48.106-25.173v-44.053c29.334 6.72 56.106 20.16 78.613 38.613l43.52-43.413 27.2 27.2-356.8 356.8zM256 394.666l-44.587-44.587 44.587-44.587v89.173z" />
<glyph unicode="&#xe61b;" glyph-name="volume-up" d="M64 288v-128h85.334l106.666-106.666v341.334l-106.666-106.666h-85.334zM352 224c0 37.76-21.76 70.187-53.334 85.974v-171.733c31.574 15.574 53.334 48 53.334 85.76zM298.666 411.094v-43.947c61.654-18.346 106.666-75.52 106.666-143.147s-45.014-124.8-106.666-143.147v-43.947c85.546 19.413 149.334 95.786 149.334 187.094s-63.786 167.68-149.333 187.094z" />
<glyph unicode="&#xe61c;" glyph-name="remove-circle-outline" d="M149.333 245.333v-42.667h213.333v42.666h-213.333zM256 437.334c-117.867 0-213.333-95.466-213.333-213.334s95.466-213.333 213.333-213.333 213.333 95.466 213.333 213.333-95.466 213.333-213.333 213.333zM256 53.334c-94.080 0-170.667 76.587-170.667 170.667s76.587 170.667 170.667 170.667 170.667-76.587 170.667-170.667-76.587-170.667-170.667-170.667z" />
<glyph unicode="&#xe61e;" glyph-name="cancel" d="M256 437.334c-117.867 0-213.333-95.466-213.333-213.334s95.466-213.333 213.333-213.333 213.333 95.466 213.333 213.333-95.466 213.333-213.333 213.333zM362.666 147.52l-30.187-30.187-76.48 76.48-76.48-76.48-30.186 30.187 76.48 76.48-76.48 76.48 30.186 30.187 76.48-76.48 76.48 76.48 30.187-30.187-76.48-76.48 76.48-76.48z" />
<glyph unicode="&#xe61f;" glyph-name="menu" d="M64 96h384v42.666h-384v-42.666zM64 202.666h384v42.666h-384v-42.666zM64 352v-42.666h384v42.666h-384z" />
<glyph unicode="&#xe620;" glyph-name="sync" d="M256 394.666v64l-85.334-85.334 85.334-85.333v64c70.72 0 128-57.28 128-128 0-21.654-5.44-41.92-14.827-59.84l31.147-31.147c16.534 26.454 26.346 57.493 26.346 90.987 0 94.293-76.373 170.667-170.667 170.667zM256 96c-70.72 0-128 57.28-128 128 0 21.654 5.44 41.92 14.827 59.84l-31.147 31.146c-16.534-26.453-26.346-57.493-26.346-90.986 0-94.293 76.374-170.667 170.666-170.667v-64l85.334 85.334-85.334 85.334v-64z" />
<glyph unicode="&#xe621;" glyph-name="share" d="M384 136.853c-16.214 0-30.827-6.293-41.92-16.426l-152 88.64c1.173 4.8 1.92 9.813 1.92 14.934s-0.746 10.133-1.92 14.934l150.4 87.786c11.413-10.666 26.666-17.28 43.52-17.28 35.307 0 64 28.693 64 64s-28.693 64-64 64-64-28.694-64-64c0-5.12 0.747-10.134 1.92-14.934l-150.4-87.786c-11.413 10.666-26.667 17.28-43.52 17.28-35.306 0-64-28.693-64-64s28.694-64 64-64c16.853 0 32.106 6.613 43.52 17.28l152-88.64c-1.067-4.48-1.707-9.173-1.707-13.974 0-34.346 27.84-62.187 62.187-62.187s62.187 27.84 62.187 62.187-27.84 62.187-62.187 62.187z" />
<glyph unicode="&#xe900;" glyph-name="download" d="M256 192l128 128h-96v128h-64v-128h-96zM372.363 244.364l-35.87-35.871 130.040-48.493-210.533-78.509-210.533 78.509 130.040 48.493-35.871 35.871-139.636-52.364v-128l256-96 256 96v128z" />
<glyph unicode="&#xe901;" glyph-name="cart" d="M407.088 227.556c19.764 0 36.944 13.583 41.5 32.82l33.583 141.723c6.736 26.93-13.626 53.013-41.375 53.013h-383.834c-15.694 0-28.43-12.736-28.43-28.445s12.736-28.444 28.43-28.444h28.445v-241.778c0-23.57 19.097-42.666 42.639-42.666h298.555c15.709 0 28.43 12.736 28.43 28.445s-12.722 28.445-28.43 28.445h-284.334v56.889h264.82zM142.268 398.222h280.541l-26.958-113.778h-253.583v113.778zM156.49 85.334c-23.555 0-42.653-19.097-42.653-42.666s19.097-42.666 42.653-42.666 42.653 19.097 42.653 42.666-19.097 42.666-42.653 42.666zM383.949 85.334c-23.555 0-42.639-19.097-42.639-42.666s19.084-42.666 42.639-42.666 42.652 19.097 42.652 42.666-19.097 42.666-42.653 42.666z" />
<glyph unicode="&#xe902;" glyph-name="playlist_play" d="M363 192.333l106-64-106-64v128zM43 149.333v43h277v-43h-277zM405 362.333v-42h-362v42h362zM405 277.333v-43h-362v43h362z" />
<glyph unicode="&#xe903;" glyph-name="pause2" d="M299 362.333h85v-298h-85v298zM128 64.333v298h85v-298h-85z" />
<glyph unicode="" glyph-name="pause2" d="M299 362.333h85v-298h-85v298zM128 64.333v298h85v-298h-85z" />
<glyph unicode="save" glyph-name="download" d="M256 192l128 128h-96v128h-64v-128h-96zM372.363 244.364l-35.87-35.871 130.040-48.493-210.533-78.509-210.533 78.509 130.040 48.493-35.871 35.871-139.636-52.364v-128l256-96 256 96v128z" />
<glyph unicode="download" glyph-name="download" d="M256 192l128 128h-96v128h-64v-128h-96zM372.363 244.364l-35.87-35.871 130.040-48.493-210.533-78.509-210.533 78.509 130.040 48.493-35.871 35.871-139.636-52.364v-128l256-96 256 96v128z" />
</font>
</defs>
</svg>
